- Download Futurama S06e25 [SATrip - XviD - Eng Mp3 - HardSub Ita] HDTVrip Torrent

Download Futurama S06e25 [SATrip - XviD - Eng Mp3 - HardSub Ita] HDTVripTorrent

login Login create account Konto erstellen Separator English  Francais  Espanol  Italiano  Deutsch
Torrent > TV Series > Futurama > Futurama S06e25 [SATrip - XviD - Eng Mp3 - HardSub Ita] HDTVrip


Futurama S06e25 [SATrip - XviD - Eng Mp3 - HardSub Ita] HDTVrip


Download

Informationen über Futurama S06e25 [SATrip - XviD - Eng Mp3 - HardSub Ita] HDTVrip

- Diesen Torrent runterladen

Seeds 176
Peers 41
Größe 164.7 MB
Hinzugefügt Tuesday, 06 September 2011 at 11:55:44
Commentts 0
Kategorie TV Series Futurama
Hash c016235507b9dc28e0272e93e665452d655966ac
Reported Verified (1) - Fake (1) - Password (1) - Virus (1)
Uploader Anonymous

Description

General
Complete name : 25 - Overclockwise.avi
Format : AVI
Format/Info : Audio Video Interleave
File size : 165 MiB
Duration : 21mn 0s
Overall bit rate : 1 096 Kbps
Writing application : Some super fast AVI muxer
Writing library : VirtualDub build 30091/release

Video
ID : 0
Format : MPEG-4 Visual
Format profile : Advanced Simple@L5
Format settings, BVOP : 2
Format settings, QPel : No
Format settings, GMC : No warppoints
Format settings, Matrix : Default (H.263)
Muxing mode : Packed bitstream
Codec ID : XVID
Codec ID/Hint : XviD
Duration : 21mn 0s
Bit rate : 931 Kbps
Width : 624 pixels
Height : 352 pixels
Display aspect ratio : 16:9
Frame rate : 23.976 fps
Color space : YUV
Chroma subsampling : 4:2:0
Bit depth : 8 bits
Scan type : Progressive
Compression mode : Lossy
Bits/(Pixel*Frame) : 0.177
Stream size : 140 MiB (85%)
Writing library : XviD 64

Audio
ID : 1
Format : MPEG Audio
Format version : Version 1
Format profile : Layer 3
Codec ID : 55
Codec ID/Hint : MP3
Duration : 21mn 0s
Bit rate mode : Variable
Bit rate : 151 Kbps
Channel(s) : 2 channels
Sampling rate : 48.0 KHz
Compression mode : Lossy
Stream size : 22.8 MiB (14%)
Alignment : Aligned on interleaves
Interleave, duration : 24 ms (0.58 video frame)
Interleave, preload duration : 372 ms

Kommentare zu Futurama S06e25 [SATrip - XviD - Eng Mp3 - HardSub Ita] HDTVrip

00 COMMENT(S) INSIDE

Keine Kommentare für diese Datei verfügbar!



Post a comment

Username
Password



Files

Filename Size
25 - Overclockwise.avi 164.7 MB

Sharen Futurama S06e25 [SATrip - XviD - Eng Mp3 - HardSub Ita] HDTVrip

Permalink URL
Standard HREF Link Code
Link For Forums
Bookmark

Andere Torrents die Sie interessieren könnten

TV Series torrents: letzte Suchergebnisse

<




Torrents Stats
Heute
0 neue Torrents
Gesamt
12112885 Torrents


Zuletzt gesucht

Freunde


RSS2




DMCA Info  |  Datenschutzrichtlinie  |  Kontakt
Copyright 2007-2015 ©SUMOTorrent. Alle Rechte vorbehalten.

Download Futurama S06e25 [SATrip - XviD - Eng Mp3 - HardSub Ita] HDTVripTorrent