Download Harry.Potter.and.the.Deathly.Hallows.Part.1.DVDRip.XviD-RLF Torrent

login Login create account Create account Separator English  Francais  Espanol  Italiano  Deutsch
Torrent > Miscellaneous > Unsorted > Harry.Potter.and.the.Deathly.Hallows.Part.1.DVDRip.XviD-RLF


Verified Harry.Potter.and.the.Deathly.Hallows.Part.1.DVDRip.XviD-RLF


Download

Information about Harry.Potter.and.the.Deathly.Hallows.Part.1.DVDRip.XviD-RLF

- Download torrent

Seeds 10595
Peers 652
Size 721.3 MB
Date Wednesday, 30 March 2011 at 08:33:01
Comments 0
Category Miscellaneous Unsorted
Hash 2f27a0284123dcd77579a56a902f8ecbefa8e278
Reported Verified (3) - Fake (0) - Password (1) - Virus (1)
Uploader Anonymous

Comments on Harry.Potter.and.the.Deathly.Hallows.Part.1.DVDRip.XviD-RLF

11 COMMENT(S) INSIDE

FROM : thefather_ge_x on Thursday, 07 April 2011 at 03:04:17
Harry.Potter.and.the.Deathly.Hallows.Part.1.DVDRip.XviD-RLF General: Complete name : rlf-hpdhp1.avi Format/Info : Audio Video Interleave File size : 707 MiB Duration : 2h 26mn Overall bit rate : 677 Kbps Language : English Encoder : Ralf Video: Format : MPEG-4 Visual Format profile : [email protected] Format settings, BVOP : 1 Format settings, QPel : No Format settings, GMC : No warppoints Format settings, Matrix : Custom Codec ID/Hint : XviD Duration : 2h 26mn Bit rate : 547 Kbps Width : 608 pixels Height : 352 pixels Display aspect ratio : 16:9 Frame rate : 23.976 fps Color space : YUV Chroma subsampling : 4:2:0 Bit depth : 8 bits Scan type : Progressive Bits/(Pixel*Frame) : 0.107 Stream size : 572 MiB (81%) Audio: Format : MPEG Audio Format profile : Layer 3 Mode : Joint stereo Codec ID/Hint : MP3 Duration : 2h 26mn Bit rate mode : Variable Bit rate : 116 Kbps Channel(s) : 2 channels Sampling rate : 48.0 KHz Stream size : 122 MiB (17%) Alignment : Aligned on interleaves Interleave, duration : 24 ms (0.58 video frame) Interleave, preload duration : 138 ms Writing library : LAME3.98.2 SOURCE: TWiZTED NTSC DVD-R PILOT: As Harry races against time and evil to destroy the Horcruxes, he uncovers the existence of three most powerful objects in the wizarding world: the Deathly Hallows. CAST: Bill Nighy ... Minister Rufus Scrimgeour Emma Watson ... Hermione Granger Richard Griffiths ... Vernon Dursley Harry Melling ... Dudley Dursley Daniel Radcliffe ... Harry Potter SCREENS: http://www.leetleech.org/images/35332162580613315347.png http://www.leetleech.org/images/00397791016828449838.png http://www.leetleech.org/images/02639207501115422820.png http://www.leetleech.org/images/50725543509998090571.png



Post a comment

Username
Password



Files

Filename Size
Sample 14.4 MB
rlf-hpdhp1.avi 706.9 MB
rlf-hpdhp1.nfo 9 KB

Share Harry.Potter.and.the.Deathly.Hallows.Part.1.DVDRip.XviD-RLF

Permalink URL
Standard HREF Link Code
Link For Forums
Bookmark

Other torrents that might interest you

Miscellaneous torrents: recent searches

Warning! Do Not Download Torrents Without A VPN!
Your IP Address is . Location is
Your Internet Provider can see when you download torrents! Hide your IP with a VPN!
We strongly recommend using SpyOFF VPN to hide your torrenting.
Get SpyOFF VPN Now!




Torrents Stats
ADDED TODAY
0 torrent(s)
TOTAL
14125542 torrents


Latest searches

Friends


RSS2



DMCA Info  |  Privacy policy  |  Contact
Copyright 2007-2015 ©SUMOTorrent. All rights reserved.

Download Harry.Potter.and.the.Deathly.Hallows.Part.1.DVDRip.XviD-RLF Torrent