Download Futurama S06e26 [SATrip - XviD - Eng Mp3 - HardSub Ita] HDTVripTorrent

login Login create account Create account Separator English  Francais  Espanol  Italiano  Deutsch
Torrent > TV Series > Futurama > Futurama S06e26 [SATrip - XviD - Eng Mp3 - HardSub Ita] HDTVrip


Futurama S06e26 [SATrip - XviD - Eng Mp3 - HardSub Ita] HDTVrip


Download

Information about Futurama S06e26 [SATrip - XviD - Eng Mp3 - HardSub Ita] HDTVrip

- Download torrent

Seeds 190
Peers 276
Size 114.4 MB
Date Saturday, 10 September 2011 at 17:44:19
Comments 0
Category TV Series Futurama
Hash 80712e77202682f95dd40ec6927f96c93306813a
Reported Verified (1) - Fake (1) - Password (1) - Virus (1)
Uploader Anonymous

Description

Futurama S06e26 [SATrip - XviD - Eng Mp3 - HardSub Ita] HDTVrip [TNT Village]

[url=http://forum.tntvillage.scambioetico.org/tntforum/index.php?showtopic=264286].: Scheda Originale :.[/url]

.: Trama :.

Futurama è una serie tv a cartoni animati creata da Matt Groening (autore anche de I Simpsons) e David X. Cohen, trasmessa in Italia su Italia 1 e Fox (su SKY).

La serie è ambientata nella New York dell\'anno 3000 (chiamata New New York in quanto la vecchia New York dei nostri tempi giace sotto di essa, fungendo da fogna) e racconta le avventure di Philip J. Fry, fattorino di una pizzeria che il 31 dicembre del 1999 finisce accidentalmente in una capsula per il sonno criogenico e si risveglia mille anni dopo, iniziando a lavorare come fattorino spaziale per la ditta di spedizioni di un suo discendente, il vecchissimo Professor Farnsworth: questo gli permetterà di viaggiare molto e di finire nei guai in tutti i pianeti della galassia.

L\'elemento fondamentale della serie, oltre ad una ben studiata sceneggiatura, è rappresentato dalle tantissime citazioni, in particolare dalla letteratura e cinematografia fantascientifica.

Molti spunti umoristici nascono da una visione assurda ed esasperata della tecnologia (che ad esempio ha creato le cabine automatizzate per il suicidio, o l\'albero bonsai di macedonia) e di come gli uomini si trovino a convivere con robot e le macchine che posseggono i loro stessi vizi e virtù.

La sesta stagione di Futurama è andata in onda negli USA a partire da giugno 2010 per un totale di 26 episodi. Da questa stagione la trasmissione è passata dall\'emittente Fox a Comedy Central.

.: Locandina :.

[img]http://img528.imageshack.us/img528/5141/futuramadoublevisionl.jpg[/img]

.: Scheda :.

[b]Titolo originale: [/b]Futurama
[b]Anno: [/b]2010
[b]Genere: [/b]Cartoon
[b]Distribuzione: [/b]Comedy Central
[b]Durata approssimativa episodi: [/b]20 minuti

.: Screenshot :.

[URL=http://imageshack.us/photo/my-images/189/futurama6x06lethalinspe.jpg/][IMG]http://img189.imageshack.us/img189/5572/futurama6x06lethalinspe.th.jpg[/IMG][/URL] [URL=http://imageshack.us/photo/my-images/209/futurama6x03attackofthe.jpg/][IMG]http://img209.imageshack.us/img209/1620/futurama6x03attackofthe.th.jpg[/IMG][/URL]

========================================

.: Dati tecnici del file :.

General
Complete name : 26 - Reincarnation.avi
Format : AVI
Format/Info : Audio Video Interleave
File size : 114 MiB
Duration : 20mn 52s
Overall bit rate : 766 Kbps
Writing application : Some super fast AVI muxer
Writing library : VirtualDub build 30091/release

Video
ID : 0
Format : MPEG-4 Visual
Format profile : Advanced [email protected]
Format settings, BVOP : 2
Format settings, QPel : No
Format settings, GMC : No warppoints
Format settings, Matrix : Default (H.263)
Muxing mode : Packed bitstream
Codec ID : XVID
Codec ID/Hint : XviD
Duration : 20mn 52s
Bit rate : 600 Kbps
Width : 624 pixels
Height : 352 pixels
Display aspect ratio : 16:9
Frame rate : 23.976 fps
Color space : YUV
Chroma subsampling : 4:2:0
Bit depth : 8 bits
Scan type : Progressive
Compression mode : Lossy
Bits/(Pixel*Frame) : 0.114
Stream size : 89.6 MiB (78%)
Writing library : XviD 64

Audio
ID : 1
Format : MPEG Audio
Format version : Version 1
Format profile : Layer 3
Codec ID : 55
Codec ID/Hint : MP3
Duration : 20mn 52s
Bit rate mode : Variable
Bit rate : 154 Kbps
Channel(s) : 2 channels
Sampling rate : 48.0 KHz
Compression mode : Lossy
Stream size : 22.9 MiB (20%)
Alignment : Aligned on interleaves
Interleave, duration : 24 ms (0.58 video frame)
Interleave, preload duration : 432 ms

Comments on Futurama S06e26 [SATrip - XviD - Eng Mp3 - HardSub Ita] HDTVrip

00 COMMENT(S) INSIDE

No comments available for this file !



Post a comment

Username
Password



Files

Filename Size
26 - Reincarnation.avi 114.4 MB

Share Futurama S06e26 [SATrip - XviD - Eng Mp3 - HardSub Ita] HDTVrip

Permalink URL
Standard HREF Link Code
Link For Forums
Bookmark

Other torrents that might interest you

TV Series torrents: recent searches

Warning! Do Not Download Torrents Without A VPN!
Your IP Address is . Location is
Your Internet Provider can see when you download torrents! Hide your IP with a VPN!
We strongly recommend using SpyOFF VPN to hide your torrenting.
Get SpyOFF VPN Now!




Torrents Stats
ADDED TODAY
0 torrent(s)
TOTAL
14125542 torrents


Latest searches

Friends


RSS2



DMCA Info  |  Privacy policy  |  Contact
Copyright 2007-2015 ©SUMOTorrent. All rights reserved.

Download Futurama S06e26 [SATrip - XviD - Eng Mp3 - HardSub Ita] HDTVripTorrent